<?xml version="1.0" standalone="no"?>
<!DOCTYPE svg PUBLIC "-//W3C//DTD SVG 1.1//EN" "http://www.w3.org/Graphics/SVG/1.1/DTD/svg11.dtd" >
<svg xmlns="http://www.w3.org/2000/svg" xmlns:xlink="http://www.w3.org/1999/xlink" version="1.1">
<metadata></metadata>
<defs>
<font id="ralewayregular" horiz-adv-x="1548" >
<font-face units-per-em="2048" ascent="1638" descent="-410" />
<missing-glyph horiz-adv-x="524" />
<glyph unicode="&#xfb01;" horiz-adv-x="1030" d="M59 831v111h148v154q0 61 13.5 120t44 113.5t73.5 96t106.5 66t139.5 24.5q101 0 180.5 -30t128.5 -67l-64 -100q-35 32 -99.5 53t-137.5 21q-63 0 -111.5 -26t-77 -69t-43 -93.5t-14.5 -104.5v-158h535v-942h-140v831h-395v-831h-139v831h-148z" />
<glyph unicode="&#xfb02;" horiz-adv-x="1187" d="M59 831v111h148v164q0 187 94.5 298.5t276.5 111.5q174 0 268 -88.5t94 -231.5v-956q0 -48 30 -87.5t83 -39.5q14 0 31.5 2.5t32.5 5.5t28 6t21 5l8 3l28 -115q-3 -3 -30 -10t-74.5 -14.5t-89.5 -7.5q-95 0 -151 55.5t-56 136.5v989q0 42 -11.5 79.5t-36.5 71t-70 53.5 t-105 20q-79 0 -133 -48t-76.5 -116.5t-22.5 -149.5v-137h225v-111h-225v-831h-139v831h-148z" />
<glyph unicode="&#xfb03;" horiz-adv-x="1501" d="M59 831v111h148v90q0 107 34 196.5t109 148.5t180 59q130 0 232 -54q105 134 293 134q164 0 311 -97l-66 -100q-34 31 -98.5 52.5t-136.5 21.5q-63 0 -112 -26t-77.5 -69t-42.5 -93.5t-14 -104.5v-158h533v-942h-140v831h-393v-831h-139v831h-334v-831h-139v831h-148z M346 942h334v141q0 117 39 191q-56 41 -166 41q-55 0 -97.5 -27t-65 -70t-33.5 -89t-11 -93v-94z" />
<glyph unicode="&#xfb04;" horiz-adv-x="1665" d="M59 831v111h148v105q0 171 89.5 280t246.5 109q117 0 219 -54q97 134 293 134q174 0 268 -88.5t94 -231.5v-956q0 -48 30 -87.5t83 -39.5q15 0 33 2.5t33 5.5t28 6t21 5l8 3l26 -115q-1 -3 -28.5 -10t-74.5 -14.5t-89 -7.5q-95 0 -152 55.5t-57 136.5v989 q0 42 -11.5 79.5t-36 71t-69.5 53.5t-104 20q-80 0 -134 -48t-76 -116.5t-22 -149.5v-137h224v-111h-224v-831h-139v831h-340v-831h-139v831h-148zM346 942h340v141q0 130 31 193q-53 39 -150 39q-109 0 -165 -77.5t-56 -186.5v-109z" />
<glyph horiz-adv-x="0" />
<glyph horiz-adv-x="682" />
<glyph horiz-adv-x="0" />
<glyph horiz-adv-x="0" />
<glyph unicode="&#xd;" horiz-adv-x="0" />
<glyph unicode=" "  horiz-adv-x="524" />
<glyph unicode="&#x09;" horiz-adv-x="524" />
<glyph unicode="&#xa0;" horiz-adv-x="524" />
<glyph unicode="!" horiz-adv-x="497" d="M180 0v229h139v-229h-139zM180 467v1001h139v-1001h-139z" />
<glyph unicode="&#x22;" horiz-adv-x="573" d="M127 1206v260h123v-260h-123zM324 1206v260h120v-260h-120z" />
<glyph unicode="#" horiz-adv-x="1400" d="M82 424v111h256l98 401h-268v104h295l98 414h119l-102 -414h387l100 414h119l-103 -414h240v-104h-266l-97 -401h275v-111h-301l-103 -424h-118l104 424h-387l-102 -424h-119l106 424h-231zM455 535h387l98 401h-389z" />
<glyph unicode="$" horiz-adv-x="1263" d="M76 199l69 116q76 -80 197.5 -134.5t263.5 -63.5v547q-103 24 -172.5 46t-131.5 53t-97.5 69t-55.5 91.5t-20 123.5q0 188 127.5 296t341.5 119v207h76v-205q249 -8 436 -168l-68 -114q-62 68 -159.5 109.5t-216.5 45.5v-546q102 -20 175 -41t141 -53.5t109.5 -74.5 t66 -102.5t24.5 -138.5q0 -191 -138.5 -290.5t-369.5 -102.5v-199h-76v201q-304 18 -522 209zM274 1067q0 -112 74.5 -166t257.5 -96v530q-169 -7 -250.5 -76.5t-81.5 -191.5zM666 115q175 0 270.5 64t95.5 188q0 60 -22 104t-71.5 76.5t-112.5 55t-160 46.5v-534z" />
<glyph unicode="%" horiz-adv-x="1482" d="M92 1180q0 123 89.5 209t215.5 86q128 0 218 -86t90 -209q0 -121 -90 -207t-218 -86q-126 0 -215.5 86t-89.5 207zM141 55l574 697l555 710l71 -61l-569 -696l-559 -713zM197 1180q0 -88 59 -150.5t141 -62.5q84 0 143.5 63.5t59.5 149.5q0 88 -61 150.5t-142 62.5 q-82 0 -141 -63.5t-59 -149.5zM780 274q0 121 89.5 207t215.5 86q127 0 216.5 -85.5t89.5 -207.5q0 -123 -89 -208.5t-217 -85.5q-126 0 -215.5 85.5t-89.5 208.5zM885 274q0 -89 58.5 -151t141.5 -62q84 0 142.5 63t58.5 150t-60.5 150t-140.5 63q-84 0 -142 -63.5 t-58 -149.5z" />
<glyph unicode="&#x26;" horiz-adv-x="1376" d="M98 375q0 71 23.5 133t70.5 116t95 94t119 89q-112 120 -155.5 195t-43.5 151q0 135 104.5 227.5t259.5 92.5q145 0 242.5 -80.5t97.5 -206.5q0 -61 -23.5 -115t-71.5 -103t-97.5 -86.5t-124.5 -86.5l407 -426q89 168 89 360h118q-3 -250 -125 -446l273 -283h-185 l-167 176q-88 -94 -201.5 -145t-241.5 -51q-127 0 -232 49t-168 140t-63 206zM233 371q0 -87 51 -152t127.5 -96t163.5 -31q102 0 192 43.5t159 122.5l-441 465q-122 -85 -187 -167.5t-65 -184.5zM336 1157q0 -51 35.5 -108.5t140.5 -169.5q60 41 91 63t71.5 56t60 59 t33.5 58t14 67q0 79 -60 130.5t-151 51.5q-100 0 -167.5 -60.5t-67.5 -146.5z" />
<glyph unicode="'" horiz-adv-x="348" d="M113 1237v229h123v-229h-123z" />
<glyph unicode="(" horiz-adv-x="548" d="M90 709q0 192 74 383t213 421l106 -51q-98 -144 -180 -361.5t-82 -398.5q0 -158 68.5 -346.5t191.5 -375.5l-104 -56q-287 427 -287 785z" />
<glyph unicode=")" horiz-adv-x="548" d="M66 1462l106 51q139 -230 213 -421t74 -383q0 -358 -287 -785l-104 56q123 187 191.5 375.5t68.5 346.5q0 180 -82 397t-180 363z" />
<glyph unicode="*" horiz-adv-x="661" d="M127 1290l23 74l141 -53l-6 149h90l-6 -149l141 53l22 -74l-139 -45l90 -127l-65 -45l-88 133l-88 -133l-62 45l88 127z" />
<glyph unicode="+" horiz-adv-x="856" d="M109 670v114h256v277h127v-277h256v-114h-256v-277h-127v277h-256z" />
<glyph unicode="," horiz-adv-x="419" d="M113 -31q17 0 30 9.5t13 33.5v189h118v-209q0 -65 -47.5 -97t-113.5 -32v106z" />
<glyph unicode="-" horiz-adv-x="866" d="M135 494v129h596v-129h-596z" />
<glyph unicode="." horiz-adv-x="387" d="M135 0v201h119v-201h-119z" />
<glyph unicode="/" horiz-adv-x="1241" d="M59 0l967 1454h160l-969 -1454h-158z" />
<glyph unicode="0" horiz-adv-x="1259" d="M117 600q0 133 39 249t106.5 198t163 129t205.5 47q146 0 263.5 -80t184 -223t66.5 -320t-66.5 -319t-184 -221.5t-263.5 -79.5q-147 0 -264.5 79.5t-183.5 221t-66 319.5zM256 600q0 -219 104.5 -354t270.5 -135q165 0 269 135t104 354t-104 355.5t-269 136.5 q-166 0 -270.5 -136.5t-104.5 -355.5z" />
<glyph unicode="1" horiz-adv-x="876" d="M94 840v135q44 0 103.5 26.5t107.5 61t83 65t40 41.5h143v-1042h260v-127h-694v127h291v877q-38 -50 -148 -107t-186 -57z" />
<glyph unicode="2" horiz-adv-x="1091" d="M104 0q0 83 14 151t50 138t105 132.5t171 115.5q24 13 78 38.5t85.5 41.5t75 44.5t68 53.5t42.5 60.5t18 74.5q0 86 -71.5 150.5t-196.5 64.5q-191 0 -328 -170l-92 100q14 16 33.5 34.5t62.5 49t90 53.5t116.5 40.5t141.5 17.5q179 0 286.5 -94t107.5 -230 q0 -63 -26 -119t-62.5 -93.5t-88.5 -71.5t-89 -52t-79 -37q-7 -3 -10 -4q-182 -82 -251.5 -157.5t-88.5 -204.5h717v-127h-879z" />
<glyph unicode="3" horiz-adv-x="1097" d="M80 -66l96 89q44 -92 134 -144.5t218 -52.5q154 0 242 76t88 213q0 141 -94 223t-264 82h-51v119h55q154 0 239.5 72t85.5 192q0 118 -82.5 184t-214.5 66q-116 0 -205.5 -52t-133.5 -145l-91 86q51 107 172.5 172.5t270.5 65.5q189 0 309.5 -102.5t120.5 -264.5 q0 -127 -73 -219.5t-197 -110.5q135 -22 215.5 -122t80.5 -248q0 -186 -130.5 -300t-342.5 -114q-154 0 -271.5 62t-176.5 173z" />
<glyph unicode="4" horiz-adv-x="1110" d="M43 104v123l727 942h96v-938h181v-127h-181v-364h-139v364h-684zM190 231h549v719z" />
<glyph unicode="5" horiz-adv-x="1128" d="M78 -27l92 70q58 -101 158 -162t217 -61q154 0 257 99.5t103 254.5q0 149 -99 244.5t-247 95.5q-98 0 -183 -42.5t-138 -121.5h-129l161 819h703v-129h-598l-101 -522q53 57 131 89t168 32q132 0 240.5 -58.5t172 -165t63.5 -239.5q0 -141 -68.5 -252t-183.5 -170 t-254 -59q-153 0 -278 75.5t-187 202.5z" />
<glyph unicode="6" horiz-adv-x="1241" d="M113 588q0 432 143.5 654t392.5 222q142 0 257 -72t175 -198l-90 -82q-41 104 -135 166.5t-209 62.5q-182 0 -291 -168.5t-110 -465.5q44 120 154.5 192t248.5 72q137 0 252 -65.5t181.5 -178.5t66.5 -248q0 -136 -67.5 -250.5t-186 -181.5t-260.5 -67q-234 0 -378 164 t-144 444zM256 479q0 -154 113 -265.5t268 -111.5t267 111t112 266t-112.5 266t-266.5 111q-157 0 -269 -111t-112 -266z" />
<glyph unicode="7" horiz-adv-x="1126" d="M94 1065v129h1006l-735 -1454h-160l674 1325h-785z" />
<glyph unicode="8" horiz-adv-x="1220" d="M104 412q0 130 86.5 227.5t204.5 138.5q-104 43 -171.5 123t-67.5 182q0 70 26.5 130.5t71 104t103 75t123 46.5t130.5 15q83 0 163 -25t145.5 -70t106 -116.5t40.5 -157.5q0 -102 -69.5 -183t-174.5 -124q127 -44 210 -143.5t83 -231.5q0 -123 -70.5 -220t-186 -148 t-253.5 -51q-216 0 -358 124.5t-142 303.5zM248 412q0 -91 56 -162t138 -106t170 -35q89 0 171 37t136 108.5t54 159.5q0 93 -56.5 164.5t-138.5 106t-170 34.5q-91 0 -172.5 -37t-134.5 -109t-53 -161zM297 1077q0 -76 48.5 -134.5t119 -86t145.5 -27.5q74 0 144.5 28.5 t120 88t49.5 135.5q0 112 -93.5 179t-222.5 67q-127 0 -219 -68.5t-92 -181.5z" />
<glyph unicode="9" horiz-adv-x="1206" d="M78 670q0 136 67.5 250.5t186 181.5t260.5 67q234 0 378 -164t144 -444q0 -432 -143.5 -654t-392.5 -222q-142 0 -257.5 72t-175.5 198l91 82q41 -104 135 -167t209 -63q182 0 291 168.5t110 466.5q-44 -120 -154.5 -192t-248.5 -72q-137 0 -252 65.5t-181.5 178.5 t-66.5 248zM211 670q0 -155 112.5 -266t266.5 -111q157 0 269 111t112 266q0 154 -113 265.5t-268 111.5t-267 -111t-112 -266z" />
<glyph unicode=":" horiz-adv-x="403" d="M143 0v201h117v-201h-117zM143 860v201h117v-201h-117z" />
<glyph unicode=";" horiz-adv-x="434" d="M119 -31q17 0 30 9.5t13 33.5v189h119v-209q0 -65 -48 -97t-114 -32v106zM162 860v201h119v-201h-119z" />
<glyph unicode="&#x3c;" horiz-adv-x="1036" d="M70 489v76l858 516v-149l-658 -402l658 -399v-154z" />
<glyph unicode="=" horiz-adv-x="903" d="M143 397v101h619v-101h-619zM143 633v100h619v-100h-619z" />
<glyph unicode="&#x3e;" horiz-adv-x="1036" d="M109 -23v154l657 399l-657 402v149l860 -516v-76z" />
<glyph unicode="?" horiz-adv-x="980" d="M72 1208q56 123 173.5 194t254.5 71q77 0 147.5 -24.5t127 -71.5t90.5 -124t34 -172q0 -45 -9 -85t-20.5 -68.5t-36.5 -57.5t-42 -45.5t-54 -40.5t-54 -34t-60 -33q-37 -20 -57.5 -33t-49 -39.5t-43.5 -54.5t-26 -73.5t-11 -102.5h-119q0 132 42 212.5t133 135.5 q16 9 58 32.5t65.5 37.5t58.5 42.5t54 56t33.5 69.5t14.5 90q0 126 -82 196t-196 70q-105 0 -194.5 -59t-135.5 -150zM319 0v219h121v-219h-121z" />
<glyph unicode="@" horiz-adv-x="1691" d="M102 471q0 169 63 314t168 242.5t242 152.5t285 55q150 0 286.5 -57t238 -158t161.5 -248t60 -317q0 -31 -2 -64t-9.5 -83.5t-19.5 -94.5t-35 -90.5t-53 -79.5t-76.5 -54.5t-103.5 -21.5q-49 0 -82.5 15t-51.5 44t-26 58.5t-12 71.5q-61 -64 -153 -105t-194 -41 q-142 0 -224.5 76.5t-82.5 198.5q0 60 22.5 108.5t59 78.5t86.5 50.5t102 28.5t109 8q128 0 260 -47q0 77 -12 134.5t-39.5 103t-78.5 69t-124 23.5q-154 0 -286 -97l-37 80q159 107 334 107q64 0 114.5 -13.5t85 -35t60 -55t40 -68t22.5 -79.5t10.5 -83t2.5 -86v-264 q0 -51 3.5 -84t14 -63t32.5 -44t55 -14q61 0 105.5 42.5t67 110.5t32.5 133.5t10 129.5q0 195 -88 357t-243 255.5t-343 93.5q-186 0 -342 -88.5t-248 -248.5t-92 -357q0 -192 87 -352.5t241 -254t342 -93.5q158 0 315 77l27 -65q-165 -82 -342 -82q-151 0 -288 58.5 t-237.5 159.5t-159.5 245t-59 307zM575 289q0 -84 62 -137.5t158 -53.5q98 0 190 45q78 36 105.5 88.5t27.5 120.5v82q-9 1 -50 13t-97.5 22t-114.5 10t-106 -9.5t-88.5 -30.5t-63.5 -59.5t-23 -90.5z" />
<glyph unicode="A" horiz-adv-x="1390" d="M31 0l608 1454h117l608 -1454h-154l-188 455h-653l-187 -455h-151zM399 567h590l-291 719z" />
<glyph unicode="B" horiz-adv-x="1368" d="M184 0v1454h699q98 0 175.5 -55.5t116.5 -139t39 -176.5q0 -110 -55.5 -202t-152.5 -136q124 -37 197 -137.5t73 -232.5q0 -106 -55.5 -192.5t-148.5 -134.5t-204 -48h-684zM326 125h542q111 0 188 82.5t77 191.5q0 110 -72.5 193.5t-177.5 83.5h-557v-551zM326 793h499 q105 0 177.5 80t72.5 188q0 112 -67.5 190t-169.5 78h-512v-536z" />
<glyph unicode="C" horiz-adv-x="1411" d="M90 737q0 133 47 261t132.5 232t219 168t291.5 64q188 0 327.5 -86t209.5 -231l-115 -70q-33 70 -83 121.5t-108 80.5t-117.5 42.5t-121.5 13.5q-101 0 -189 -34.5t-151.5 -93.5t-109 -136.5t-67.5 -164t-22 -175.5q0 -160 71 -300.5t197.5 -226t276.5 -85.5 q86 0 169 27.5t159.5 90t120.5 152.5l119 -61q-45 -104 -140.5 -182.5t-208.5 -117t-227 -38.5q-116 0 -223 42t-189 115.5t-143 168t-93 204t-32 219.5z" />
<glyph unicode="D" horiz-adv-x="1470" d="M184 0v1454h492q136 0 250.5 -37t196 -103t138 -157t84 -199t27.5 -229q0 -331 -189 -530t-507 -199h-492zM326 127h350q133 0 239 46t174 127t104 190.5t36 238.5q0 267 -146.5 432.5t-406.5 165.5h-350v-1200z" />
<glyph unicode="E" horiz-adv-x="1255" d="M184 0v1454h959v-127h-817v-524h712v-121h-712v-555h835v-127h-977z" />
<glyph unicode="F" horiz-adv-x="1198" d="M184 0v1454h953v-127h-811v-534h686v-119h-686v-674h-142z" />
<glyph unicode="G" horiz-adv-x="1478" d="M92 729q0 145 51 279t138.5 234.5t214 161t268.5 60.5q395 0 555 -317l-111 -74q-137 262 -446 262q-118 0 -218.5 -51.5t-166.5 -136.5t-103.5 -194.5t-37.5 -225.5q0 -162 71.5 -301.5t197.5 -223t277 -83.5q253 0 455 241v244h-322v111h445v-715h-123v211 q-203 -221 -465 -221q-114 0 -220.5 41t-188.5 113t-144 165t-94.5 201.5t-32.5 218.5z" />
<glyph unicode="H" horiz-adv-x="1513" d="M184 0v1454h142v-647h862v647h143v-1454h-143v680h-862v-680h-142z" />
<glyph unicode="I" horiz-adv-x="509" d="M184 0v1452h142v-1452h-142z" />
<glyph unicode="J" horiz-adv-x="995" d="M37 68l41 114q109 -76 274 -76q63 0 112 14t84 38t60 65.5t40 87.5t23.5 113.5t11.5 133.5t3 157v737h143v-737q0 -103 -4 -180.5t-16.5 -158.5t-34 -138t-57 -109t-85.5 -83.5t-120 -50t-160 -18.5q-182 0 -315 91z" />
<glyph unicode="K" horiz-adv-x="1312" d="M184 0v1452h142v-844l800 846h158l-594 -639l627 -815h-158l-557 731l-276 -285v-446h-142z" />
<glyph unicode="L" horiz-adv-x="1208" d="M184 0v1454h142v-1327h841v-127h-983z" />
<glyph unicode="M" horiz-adv-x="1798" d="M184 0v1454h146l569 -995l569 995h146v-1454h-141v1194l-531 -924h-84l-532 924v-1194h-142z" />
<glyph unicode="N" horiz-adv-x="1583" d="M184 0v1454h111l962 -1210v1208h142v-1452h-123l-950 1188v-1188h-142z" />
<glyph unicode="O" d="M92 727q0 144 53 278.5t142.5 235.5t218 162t270.5 61q118 0 226 -41.5t189.5 -113.5t142 -166t91.5 -201.5t31 -216.5q0 -144 -52.5 -278t-142 -235t-217.5 -161.5t-270 -60.5q-148 0 -277.5 63t-217 166t-137.5 235.5t-50 272.5zM236 727q0 -158 67 -296.5t192 -225 t279 -86.5q120 0 223 53t171 139t106.5 194.5t38.5 221.5q0 158 -68 296t-193 224t-278 86q-120 0 -223 -52.5t-170.5 -138t-106 -194t-38.5 -221.5z" />
<glyph unicode="P" horiz-adv-x="1271" d="M184 0v1454h602q120 0 221 -67.5t155.5 -172t54.5 -217.5q0 -120 -51.5 -224.5t-148.5 -170t-218 -65.5h-473v-537h-142zM326 664h465q125 0 203.5 98t78.5 235q0 136 -87.5 233t-207.5 97h-452v-663z" />
<glyph unicode="Q" d="M92 727q0 144 53 278.5t142.5 235.5t218 162t270.5 61q118 0 226 -41.5t189.5 -113.5t142 -166t91.5 -201.5t31 -216.5q0 -147 -54 -283t-151 -239l172 -203h-141l-111 129q-179 -139 -397 -139q-119 1 -226.5 41.5t-189.5 111.5t-142.5 163.5t-92 201t-31.5 219.5z M236 727q0 -158 67 -296.5t192 -225t279 -86.5q174 0 313 110l-182 217h142l116 -139q72 86 111 196t39 224q0 158 -68 296.5t-193 225t-278 86.5q-96 0 -182 -34t-150 -93.5t-111 -136.5t-71 -165.5t-24 -178.5z" />
<glyph unicode="R" horiz-adv-x="1351" d="M184 0v1454h613q121 0 222 -67.5t155.5 -172t54.5 -217.5q0 -160 -90.5 -283.5t-235.5 -152.5l359 -561h-162l-344 537h-430v-537h-142zM326 664h477q83 0 148.5 47.5t99.5 123t34 162.5q0 133 -87.5 231.5t-206.5 98.5h-465v-663z" />
<glyph unicode="S" horiz-adv-x="1253" d="M72 199l69 116q84 -88 220.5 -144t295.5 -56q176 0 273.5 64t97.5 188q0 53 -19 93.5t-51 70t-90.5 54.5t-121 43t-158.5 40q-99 23 -165.5 44t-127.5 51.5t-95.5 68.5t-54.5 91.5t-20 123.5q0 198 142 307.5t376 109.5q271 0 463 -168l-68 -114q-63 71 -167 113t-230 42 q-188 0 -279.5 -70.5t-91.5 -199.5q0 -51 16.5 -89.5t44.5 -65.5t82 -49.5t112 -38.5t151 -36q101 -22 172 -43t137.5 -53.5t106 -74t63 -100.5t23.5 -136q0 -130 -68.5 -220t-184 -131.5t-270.5 -41.5q-340 0 -583 211z" />
<glyph unicode="T" horiz-adv-x="1257" d="M39 1327v127h1180v-127h-519v-1327h-143v1327h-518z" />
<glyph unicode="U" horiz-adv-x="1546" d="M162 721v733h141v-733q0 -96 14 -180t48 -163t86 -135.5t134 -90t187 -33.5q107 0 190.5 34.5t135.5 91.5t85.5 136.5t46.5 162.5t13 177v733h143v-733q0 -121 -20.5 -226.5t-67 -199.5t-116 -160.5t-174 -105.5t-234.5 -39q-135 0 -241 41t-174.5 109t-114 163.5 t-64 198.5t-18.5 219z" />
<glyph unicode="V" horiz-adv-x="1386" d="M25 1454h149l520 -1276l516 1276h152l-606 -1454h-125z" />
<glyph unicode="W" horiz-adv-x="2142" d="M25 1454h151l529 -1288l276 657l-254 621h137l205 -516l207 516h135l-254 -621l279 -657l526 1288h156l-615 -1454h-127l-305 719l-307 -719h-127z" />
<glyph unicode="X" horiz-adv-x="1292" d="M10 1454h160l477 -635l477 635h158l-559 -737l543 -717h-158l-461 614l-461 -614h-159l542 717z" />
<glyph unicode="Y" horiz-adv-x="1298" d="M16 1454h156l477 -782l479 782h156l-565 -913v-541h-141v545z" />
<glyph unicode="Z" horiz-adv-x="1277" d="M57 0v113l990 1214h-973v127h1138v-113l-976 -1214h974v-127h-1153z" />
<glyph unicode="[" horiz-adv-x="507" d="M172 -82v1598h244v-117h-113v-1364h113v-117h-244z" />
<glyph unicode="\" horiz-adv-x="1165" d="M55 1454h160l891 -1454h-158z" />
<glyph unicode="]" horiz-adv-x="507" d="M92 35h115v1364h-115v117h244v-1598h-244v117z" />
<glyph unicode="^" horiz-adv-x="1107" d="M90 621l406 833h118l404 -833h-123l-340 702l-346 -702h-119z" />
<glyph unicode="_" horiz-adv-x="849" d="M35 0h780v-127h-780v127z" />
<glyph unicode="`" horiz-adv-x="454" d="M100 1495h146l123 -190l-90 -35z" />
<glyph unicode="a" horiz-adv-x="1122" d="M66 305q0 148 124.5 238t325.5 90q175 0 313 -55v96q0 141 -81 224t-218 83q-163 0 -344 -127l-49 92q207 139 408 139q195 0 309.5 -113t114.5 -310v-482q0 -57 49 -57v-123q-46 -4 -55 -4q-44 0 -77 25.5t-36 72.5l-4 84q-68 -92 -182 -145t-232 -53q-161 0 -263.5 95 t-102.5 230zM201 317q0 -93 70 -162t196 -69q94 0 185 41t143 109q34 47 34 79v174q-147 56 -292 56q-151 0 -243.5 -61.5t-92.5 -166.5z" />
<glyph unicode="b" horiz-adv-x="1261" d="M150 0v1495h139v-651q162 241 407 241q108 0 200.5 -47.5t153.5 -125.5t95.5 -177.5t34.5 -204.5q0 -148 -66.5 -274t-183.5 -201t-258 -75q-122 0 -229.5 62.5t-168.5 164.5v-207h-124zM289 365q17 -106 128.5 -184.5t221.5 -78.5q113 0 205 61.5t142 159t50 207.5 q0 112 -47.5 210.5t-135.5 160.5t-196 62q-119 0 -216 -75.5t-152 -191.5v-331z" />
<glyph unicode="c" horiz-adv-x="1126" d="M80 537q0 151 67 276t190 198.5t277 73.5q149 0 263 -68t172 -186l-136 -43q-44 82 -125 128.5t-178 46.5q-164 0 -275.5 -122t-111.5 -304q0 -181 114.5 -308t274.5 -127q101 0 194 54.5t118 128.5l135 -41q-43 -116 -166.5 -190t-276.5 -74q-151 0 -274.5 76 t-192.5 203.5t-69 277.5z" />
<glyph unicode="d" horiz-adv-x="1275" d="M80 530q0 150 62 276.5t174.5 202.5t250.5 76q128 0 234 -67t172 -174v651h139v-1315q0 -57 49 -57v-123q-35 -6 -55 -6q-50 0 -83.5 29t-33.5 71v113q-64 -104 -172 -165.5t-225 -61.5q-108 0 -204.5 45.5t-163.5 121.5t-105.5 176t-38.5 207zM223 530 q0 -114 52.5 -212.5t144.5 -157t201 -58.5q111 0 223 80t129 185v329q-41 110 -150.5 188.5t-218.5 78.5q-110 0 -199 -63t-135.5 -161.5t-46.5 -208.5z" />
<glyph unicode="e" horiz-adv-x="1202" d="M80 537q0 148 68.5 273.5t191.5 200t274 74.5t273 -75.5t188.5 -200t67.5 -270.5q0 -40 -4 -56h-912q12 -171 125.5 -284t268.5 -113q107 0 199 53.5t128 139.5l121 -33q-50 -118 -175 -192t-278 -74q-152 0 -275.5 76t-192 203t-68.5 278zM223 590h787 q-13 169 -125.5 278t-270.5 109t-269.5 -109.5t-121.5 -277.5z" />
<glyph unicode="f" horiz-adv-x="706" d="M59 831v111h148v154q0 195 84.5 307.5t230.5 112.5q128 0 223 -68l-43 -100q-60 47 -153 47q-98 0 -150.5 -76t-52.5 -219v-158h295v-111h-295v-831h-139v831h-148z" />
<glyph unicode="g" horiz-adv-x="1261" d="M82 530q0 148 62 274.5t176.5 203.5t257.5 77q244 0 409 -241v223h125v-1071q0 -144 -72 -248.5t-189 -154.5t-263 -50q-174 0 -288 62t-189 180l86 68q61 -98 164.5 -148.5t226.5 -50.5q166 0 275.5 89t109.5 253v211q-63 -101 -169 -161t-222 -60q-142 0 -258 77.5 t-179 201.5t-63 265zM223 528q0 -173 116 -299.5t282 -126.5q122 0 227.5 82t124.5 183v329q-46 116 -151 191.5t-220 75.5q-114 0 -202.5 -65.5t-132.5 -163.5t-44 -206z" />
<glyph unicode="h" horiz-adv-x="1185" d="M150 0v1495h139v-670q64 120 177.5 190t242.5 70q338 0 338 -460v-625h-140v596q0 362 -245 362q-120 0 -228.5 -88t-144.5 -217v-653h-139z" />
<glyph unicode="i" horiz-adv-x="438" d="M150 0v1067h139v-1067h-139zM150 1290v205h139v-205h-139z" />
<glyph unicode="j" horiz-adv-x="438" d="M-258 -291l68 94q54 -49 149 -49q74 0 132.5 55.5t58.5 135.5v1122h139v-1114q0 -137 -95 -230.5t-219 -93.5q-147 0 -233 80zM150 1290v205h139v-205h-139z" />
<glyph unicode="k" horiz-adv-x="1079" d="M150 0v1495h139v-1016l600 586h158l-437 -436l453 -629h-152l-393 547l-229 -213v-334h-139z" />
<glyph unicode="l" horiz-adv-x="540" d="M156 195v1300h139v-1253q0 -60 33 -93.5t92 -33.5q55 0 110 22l25 -112q-39 -15 -95.5 -26t-97.5 -11q-96 0 -151 55t-55 152z" />
<glyph unicode="m" horiz-adv-x="1875" d="M150 0v1067h126v-242q66 123 172.5 191.5t235.5 68.5q131 0 214 -75t101 -199q149 274 414 274q324 0 324 -460v-625h-140v596q0 185 -58 273.5t-177 88.5q-120 0 -215.5 -85t-134.5 -222v-651h-140v596q0 188 -57 275t-176 87t-214.5 -84t-135.5 -221v-653h-139z" />
<glyph unicode="n" horiz-adv-x="1185" d="M150 0v1067h126v-242q65 117 188.5 188.5t264.5 71.5q88 0 150.5 -31.5t99 -93.5t52.5 -144t16 -191v-625h-140v596q0 188 -55 275t-172 87q-126 0 -239 -87t-152 -218v-653h-139z" />
<glyph unicode="o" horiz-adv-x="1218" d="M80 530q0 148 68 275.5t190.5 203.5t271.5 76t271.5 -76t191 -203.5t68.5 -275.5t-68 -273.5t-190.5 -201t-272.5 -75.5q-114 0 -213.5 44.5t-168.5 119t-108.5 175.5t-39.5 211zM223 528q0 -178 112.5 -302t272.5 -124t274.5 126t114.5 304t-114 304.5t-273 126.5 q-160 0 -273.5 -127.5t-113.5 -307.5z" />
<glyph unicode="p" horiz-adv-x="1259" d="M150 -436v1503h124v-207q66 102 172.5 163.5t225.5 61.5q143 0 261 -79t182.5 -205.5t64.5 -268.5q0 -150 -60.5 -276t-172 -201t-251.5 -75q-129 0 -234.5 66t-172.5 175v-657h-139zM289 371q48 -117 149.5 -193t218.5 -76q110 0 198.5 62.5t134.5 160t46 207.5 q0 174 -116 302.5t-281 128.5q-70 0 -146.5 -35.5t-134.5 -98t-69 -131.5v-327z" />
<glyph unicode="q" horiz-adv-x="1259" d="M80 532q0 147 67 274t184.5 203t256.5 76q121 0 227.5 -63t169.5 -164v209h125v-1317q0 -29 11.5 -43.5t37.5 -15.5v-121q-27 -6 -59 -6q-54 0 -91.5 36.5t-37.5 90.5v530q-156 -241 -408 -241q-140 0 -252 78t-171.5 203.5t-59.5 270.5zM223 530q0 -176 109.5 -302 t273.5 -126q119 0 211.5 70t153.5 182v330q-17 108 -128 193.5t-227 85.5q-84 0 -158.5 -37t-125 -98t-80 -139t-29.5 -159z" />
<glyph unicode="r" horiz-adv-x="718" d="M150 0v1067h131v-256q57 116 148.5 189t191.5 73q47 0 61 -2v-127q-141 -5 -246 -78.5t-147 -201.5v-664h-139z" />
<glyph unicode="s" horiz-adv-x="997" d="M59 139l64 94q178 -147 383 -147q129 0 205.5 53.5t76.5 147.5q0 35 -14 62t-35.5 45.5t-66.5 36t-87.5 29t-117.5 29.5q-83 20 -133.5 36t-98.5 38t-72.5 48t-39 63.5t-14.5 87.5q0 104 55 178.5t143.5 109.5t200.5 35q120 0 221 -39.5t164 -105.5l-68 -82 q-59 60 -143.5 91.5t-177.5 31.5q-116 0 -189 -50t-73 -149q0 -34 10.5 -58.5t27 -41t53.5 -31.5t73 -25t102 -26q92 -22 150 -39.5t114 -42.5t86 -54t48 -70t18 -95q0 -146 -113.5 -232.5t-302.5 -86.5q-127 0 -245.5 41t-203.5 118z" />
<glyph unicode="t" horiz-adv-x="679" d="M51 956v111h148v360h139v-360h246v-111h-246v-725q4 -56 39.5 -85t89.5 -29q87 0 162 47l37 -113q-1 -1 -20.5 -9.5t-32 -13.5t-37.5 -13.5t-46 -13.5t-50 -9t-56 -4q-96 0 -160.5 53.5t-64.5 151.5v763h-148z" />
<glyph unicode="u" horiz-adv-x="1216" d="M139 440v627h140v-602q0 -363 247 -363q125 0 231.5 80t153.5 213v672h140v-887q0 -57 51 -57v-123q-40 -6 -58 -6q-48 0 -81 29t-33 71v148q-70 -124 -190 -193t-261 -69q-167 0 -253.5 116.5t-86.5 343.5z" />
<glyph unicode="v" horiz-adv-x="1085" d="M35 1067h145l367 -938l368 938h136l-435 -1067h-147z" />
<glyph unicode="w" horiz-adv-x="1669" d="M35 1067h133l389 -924l203 488l-182 434h118l140 -348l137 348h119l-181 -434l203 -488l387 924h135l-456 -1067h-117l-227 545l-228 -545h-116z" />
<glyph unicode="x" horiz-adv-x="1024" d="M27 0l407 530l-407 537h149l320 -418l16 -31l18 31l318 418h149l-407 -537l407 -530h-149l-318 416l-18 28l-16 -28l-318 -416h-151z" />
<glyph unicode="y" horiz-adv-x="1110" d="M27 1067h145l395 -938l365 938h133l-555 -1376q-32 -77 -85 -113.5t-144 -36.5q-40 0 -70 6v123q24 -4 41 -4q50 0 78 12q23 9 53 68t109 254z" />
<glyph unicode="z" horiz-adv-x="995" d="M57 0v94l721 869h-704v104h856v-94l-717 -869h717v-104h-873z" />
<glyph unicode="{" horiz-adv-x="518" d="M109 686v107q38 0 58.5 36.5t20.5 71.5v553q0 33 16 47.5t32 14.5h192v-117h-113v-535q0 -77 -55 -127q29 -25 42 -61t13 -66v-557h113v-116h-192q-20 0 -34 14.5t-14 46.5v575q0 42 -21.5 75.5t-57.5 37.5z" />
<glyph unicode="|" horiz-adv-x="456" d="M168 -266v1853h121v-1853h-121z" />
<glyph unicode="}" horiz-adv-x="518" d="M92 53h113v557q0 81 53 127q-53 48 -53 127v535h-113v117h193q15 0 31 -14.5t16 -47.5v-553q0 -35 20 -71.5t58 -36.5v-107q-36 -4 -57 -37t-21 -76v-575q0 -32 -14.5 -46.5t-32.5 -14.5h-193v116z" />
<glyph unicode="~" horiz-adv-x="1040" d="M133 494q0 10 7 32.5t24 53.5t41 58.5t63.5 47t85.5 19.5q42 0 88 -18.5t80 -41t78 -41t82 -18.5q29 0 54 10t40.5 24.5t26.5 30t15.5 26.5t4.5 15h88q0 -6 -6.5 -25.5t-24.5 -49.5t-42.5 -57t-66.5 -46.5t-91 -19.5q-45 0 -94 18.5t-84 40.5t-76.5 40.5t-73.5 18.5 q-27 0 -50.5 -12t-37.5 -28.5t-24.5 -34.5t-14.5 -29.5t-4 -13.5h-88z" />
<glyph unicode="&#xa1;" horiz-adv-x="499" d="M180 -4v1001h139v-1001h-139zM180 1235v229h139v-229h-139z" />
<glyph unicode="&#xa2;" horiz-adv-x="1161" d="M94 528q0 103 34 199t94.5 171.5t151 125t197.5 59.5v238h76v-238q294 -9 416 -252l-133 -43q-44 81 -118 123t-165 47v-854q89 5 180 56.5t113 124.5l135 -41q-31 -83 -106.5 -145.5t-159 -90.5t-162.5 -28v-226h-76v228q-135 11 -246 93t-171 202.5t-60 250.5zM238 528 q0 -154 94.5 -274t238.5 -143v843q-101 -10 -179 -75t-116 -157t-38 -194z" />
<glyph unicode="&#xa3;" horiz-adv-x="1034" d="M109 651v111h192q-13 26 -45 83.5t-48 90t-31 82.5t-15 96q0 146 109.5 248t263.5 102q110 0 209 -57.5t161 -157.5l-82 -86q-50 85 -129 135t-164 50q-100 0 -168.5 -70.5t-68.5 -171.5q0 -54 20.5 -107.5t62 -126.5t58.5 -110h365v-111h-324q17 -66 17 -123 q0 -104 -47.5 -198t-165.5 -219q77 18 151 18q60 0 152 -18.5t139 -18.5q72 0 182 37l35 -106q-111 -54 -223 -54q-61 0 -169.5 24.5t-172.5 24.5q-102 0 -221 -34l-37 102q140 139 197 236.5t57 197.5q0 59 -21 131h-239z" />
<glyph unicode="&#xa5;" horiz-adv-x="1388" d="M61 1454h156l475 -782l479 782h158l-442 -704h172v-99h-228l-67 -110v-56h297v-98h-297v-387h-143v387h-293v98h293v60l-64 106h-229v99h176z" />
<glyph unicode="&#xa6;" horiz-adv-x="464" d="M172 -266v833h121v-833h-121zM172 754v833h121v-833h-121z" />
<glyph unicode="&#xa7;" horiz-adv-x="1048" d="M100 1110q0 154 122 254t292 100q122 0 214.5 -54t150.5 -140l-109 -51q-31 60 -103.5 89t-152.5 29q-115 0 -194.5 -60.5t-79.5 -170.5q0 -38 11.5 -69t28 -51.5t43 -35.5t48 -23t52.5 -13t47 -6.5t40 -2.5q68 -4 126 -15.5t111.5 -35t91 -58t59.5 -86.5t22 -118 q0 -124 -62 -193q94 -58 94 -209q0 -93 -38 -166.5t-100.5 -116.5t-133.5 -65t-145 -22q-121 0 -225 54t-177 132l90 86q148 -139 303 -139q114 0 198.5 61.5t84.5 169.5q0 46 -18 79.5t-41.5 51.5t-64 30t-66.5 15.5t-68 6.5q-399 36 -399 325q0 114 53 182 q-45 32 -75 96.5t-30 139.5zM287 674q0 -58 24 -98.5t60.5 -59.5t87 -31t96 -16t95 -11t77.5 -18q28 22 43.5 62.5t15.5 85.5q0 56 -25 97t-67.5 62.5t-86 31.5t-93.5 12q-42 1 -62 2.5t-52 7.5t-62 18q-51 -48 -51 -145z" />
<glyph unicode="&#xa8;" horiz-adv-x="673" d="M125 1296v193h119v-193h-119zM430 1296v193h119v-193h-119z" />
<glyph unicode="&#xa9;" horiz-adv-x="1716" d="M104 727q0 156 57 293t156.5 234.5t239 153.5t299.5 56q214 0 387 -95.5t271 -264.5t98 -377q0 -157 -57.5 -294.5t-157.5 -235.5t-240.5 -154.5t-300.5 -56.5t-299.5 56.5t-239 154.5t-156.5 235.5t-57 294.5zM174 725q0 -189 88.5 -343t244.5 -241.5t349 -87.5 q191 0 347 84t246.5 237.5t90.5 348.5q0 143 -52 268t-142.5 214.5t-217.5 140.5t-272 51q-192 0 -348 -87t-245 -241t-89 -344zM393 727q0 70 18 138t55.5 129.5t91.5 108.5t132 75t170 28q136 0 241 -59.5t150 -167.5l-133 -43q-37 81 -109.5 114t-148.5 33 q-78 0 -141.5 -31t-102 -82.5t-59 -114t-20.5 -128.5q0 -81 30 -149.5t78.5 -112t105.5 -68t113 -24.5q80 0 158 43t111 112l135 -39q-34 -87 -144 -162t-254 -75q-125 0 -233 57.5t-176 167.5t-68 250z" />
<glyph unicode="&#xaa;" horiz-adv-x="888" d="M96 934q0 98 85.5 160.5t219.5 62.5q125 0 209 -37v58q0 88 -52 139t-144 51q-106 0 -234 -84l-41 76q143 94 285 94q144 0 225.5 -76t81.5 -213v-293q0 -42 39 -45v-106q-36 -4 -47 -4q-40 0 -66.5 20.5t-27.5 53.5l-2 51q-51 -64 -125.5 -98.5t-161.5 -34.5 q-103 0 -173.5 65t-70.5 160zM211 942q0 -60 46.5 -100.5t115.5 -40.5q87 0 162 44.5t75 96.5v107q-73 32 -188 32q-94 0 -152.5 -38t-58.5 -101z" />
<glyph unicode="&#xab;" horiz-adv-x="1183" d="M90 489v76l510 365v-121l-395 -279l395 -274v-121zM543 489v76l508 365v-121l-394 -279l394 -274v-121z" />
<glyph unicode="&#xac;" horiz-adv-x="1206" d="M162 618v127h899v-487h-123v360h-776z" />
<glyph unicode="&#xad;" horiz-adv-x="1167" d="M135 494v129h899v-129h-899z" />
<glyph unicode="&#xae;" horiz-adv-x="1716" d="M104 727q0 156 57 293t156.5 234.5t239 153.5t299.5 56q214 0 387 -95.5t271 -264.5t98 -377q0 -157 -57.5 -294.5t-157.5 -235.5t-240.5 -154.5t-300.5 -56.5t-299.5 56.5t-239 154.5t-156.5 235.5t-57 294.5zM178 727q0 -190 87.5 -345t242.5 -243t348 -88 q191 0 346.5 84t245.5 238.5t90 351.5q0 189 -88 343t-244 241.5t-350 87.5q-192 0 -347.5 -87.5t-243 -241t-87.5 -341.5zM545 260v928h391q116 0 195 -90.5t79 -202.5q0 -101 -58 -179.5t-151 -97.5l228 -358h-119l-217 344h-242v-344h-106zM651 698h285q81 0 125.5 55 t44.5 142q0 85 -50.5 140t-127.5 55h-277v-392z" />
<glyph unicode="&#xaf;" horiz-adv-x="811" d="M111 1358v96h591v-96h-591z" />
<glyph unicode="&#xb0;" horiz-adv-x="546" d="M102 1315q0 70 49.5 119t120.5 49q72 0 121 -48.5t49 -119.5q0 -73 -49 -122.5t-121 -49.5q-71 0 -120.5 49.5t-49.5 122.5zM182 1313q0 -37 27 -64q26 -26 63 -26q40 0 66 26q24 27 24 64q0 36 -24 63t-66 27q-39 0 -63 -27q-27 -27 -27 -63z" />
<glyph unicode="&#xb1;" horiz-adv-x="942" d="M141 125v117h662v-117h-662zM141 688v117h267v287h127v-287h268v-117h-268v-287h-127v287h-267z" />
<glyph unicode="&#xb2;" horiz-adv-x="798" d="M76 670q0 104 28.5 175.5t83 117t146.5 81.5q17 7 63 23.5t67 25t55.5 27t51 35.5t30 43t13.5 57q0 66 -54 109t-154 43q-158 0 -261 -113l-61 64q10 15 33.5 35t64 45t103.5 42t133 17q143 0 221 -67.5t78 -172.5q0 -34 -9.5 -64t-23 -51.5t-36.5 -41.5t-42 -32t-48 -25 t-47 -19t-46 -15t-37 -12q-121 -41 -169 -101.5t-48 -137.5h496v-88h-631z" />
<glyph unicode="&#xb3;" horiz-adv-x="802" d="M74 840l55 59q6 -55 81 -102t181 -47q102 0 170 40t68 105q0 71 -82 111.5t-223 40.5h-48v83h48q131 0 203.5 34.5t72.5 101.5q0 66 -63 106.5t-154 40.5q-82 0 -144 -31t-94 -84l-63 70q36 59 119.5 94t181.5 35q135 0 225 -64t90 -161q0 -142 -186 -180 q96 -13 153.5 -71.5t57.5 -137.5q0 -102 -96.5 -164t-235.5 -62q-128 0 -215 50t-102 133z" />
<glyph unicode="&#xb4;" horiz-adv-x="454" d="M100 1305l121 190h148l-176 -225z" />
<glyph unicode="&#xb5;" horiz-adv-x="1224" d="M164 -434v1501h139v-602q0 -183 62.5 -273t189.5 -90q123 0 229.5 80.5t153.5 212.5v672h139v-887q0 -57 51 -57v-123q-40 -6 -59 -6q-47 0 -80 28.5t-33 71.5v148q-57 -112 -170 -187t-237 -75q-96 0 -159.5 47t-92.5 127v-588h-133z" />
<glyph unicode="&#xb6;" horiz-adv-x="1226" d="M74 961q0 232 153 362.5t424 130.5h494v-111h-144v-1507h-122v637h-152v-637h-121v637q-246 3 -389 133.5t-143 354.5zM195 965q0 -180 115.5 -275.5t295.5 -105.5v759q-197 -1 -304 -102t-107 -276zM727 584h152v759h-152v-759z" />
<glyph unicode="&#xb7;" horiz-adv-x="387" d="M135 504v229h119v-229h-119z" />
<glyph unicode="&#xb8;" horiz-adv-x="579" d="M45 -322l35 64q76 -37 180 -37q117 0 117 72q0 73 -103 73q-81 0 -163 -28l116 215l68 -27l-72 -114q30 12 78 12q72 0 114 -32.5t42 -92.5q0 -69 -54 -106t-155 -37q-102 0 -203 38z" />
<glyph unicode="&#xb9;" horiz-adv-x="557" d="M70 1292v92q24 0 52.5 11t52.5 27t44.5 32.5t32 28.5t12.5 14h94v-737h154v-92h-414v92h166v633q-26 -31 -87.5 -66t-106.5 -35z" />
<glyph unicode="&#xba;" horiz-adv-x="917" d="M90 1081q0 155 104.5 264t264.5 109t264 -109t104 -264q0 -153 -104 -262.5t-264 -109.5q-161 0 -265 109.5t-104 262.5zM213 1079q0 -112 71.5 -189t174.5 -77q102 0 174 79t72 191t-72 188.5t-174 76.5t-174 -78t-72 -191z" />
<glyph unicode="&#xbb;" horiz-adv-x="1183" d="M131 135v121l395 274l-395 279v121l508 -365v-76zM584 135v121l393 274l-393 279v121l508 -365v-76z" />
<glyph unicode="&#xbc;" horiz-adv-x="1699" d="M94 1292v92q38 0 86.5 27.5t77.5 53.5t31 32h94v-737h154v-92h-414v92h166v633q-25 -31 -87.5 -66t-107.5 -35zM274 55l574 697l555 710l72 -61l-570 -696l-559 -713zM944 211v86l496 520h63v-516h117v-90h-117v-211h-92v211h-467zM1042 301h371v391z" />
<glyph unicode="&#xbd;" horiz-adv-x="1779" d="M100 1292v92q38 0 86.5 27.5t77.5 53.5t31 32h94v-737h154v-92h-414v92h166v633q-25 -31 -87.5 -66t-107.5 -35zM207 55l573 697l555 710l72 -61l-569 -696l-559 -713zM1065 0q0 154 60 239t192 138q16 6 52 19t55.5 21t49.5 21.5t47 27t34.5 31.5t25.5 40.5t8 48.5 q0 66 -53 109.5t-150 43.5q-149 0 -253 -114l-60 65q13 16 34.5 34.5t61.5 44t100.5 42t129.5 16.5q140 0 215.5 -67.5t75.5 -175.5q0 -35 -10.5 -66t-24.5 -52.5t-41.5 -42.5t-46 -32.5t-54.5 -26t-51 -19.5l-51 -17q-121 -39 -175 -105t-54 -133h510v-90h-627z" />
<glyph unicode="&#xbe;" horiz-adv-x="1732" d="M90 840l55 59q6 -55 81.5 -102t181.5 -47q102 0 169.5 40t67.5 105q0 71 -82 111.5t-223 40.5h-47v83h47q131 0 203.5 34.5t72.5 101.5q0 66 -63 106.5t-154 40.5q-82 0 -143.5 -31t-93.5 -84l-64 70q36 59 119.5 94t181.5 35q135 0 225.5 -64t90.5 -161 q0 -141 -187 -180q96 -13 153.5 -71.5t57.5 -137.5q0 -102 -96 -164t-235 -62q-128 0 -215.5 50t-102.5 133zM346 55l574 697l555 710l71 -61l-569 -696l-559 -713zM965 211v86l495 520h64v-516h116v-90h-116v-211h-92v211h-467zM1063 301h371v391z" />
<glyph unicode="&#xbf;" horiz-adv-x="966" d="M74 -45q0 45 9 85t20.5 68.5t36.5 57.5t42 45.5t54 40.5t54 34t60 33q37 20 57.5 33.5t49 39.5t43.5 54.5t26 74t11 102.5h118q0 -132 -41.5 -213t-132.5 -136q-16 -10 -57.5 -33t-65.5 -37t-59 -42.5t-54 -55.5t-33.5 -69t-14.5 -90q0 -126 82 -196t196 -70 q106 0 195 58.5t135 149.5l96 -61q-56 -123 -173.5 -193.5t-254.5 -70.5q-77 0 -147.5 24.5t-127 71.5t-90.5 123.5t-34 171.5zM532 817v219h121v-219h-121z" />
<glyph unicode="&#xc0;" horiz-adv-x="1390" d="M31 0l608 1454h117l608 -1454h-154l-188 455h-653l-187 -455h-151zM399 567h590l-291 719zM508 1878h145l123 -190l-90 -35z" />
<glyph unicode="&#xc1;" horiz-adv-x="1390" d="M31 0l608 1454h117l608 -1454h-154l-188 455h-653l-187 -455h-151zM399 567h590l-291 719zM618 1688l121 190h148l-176 -225z" />
<glyph unicode="&#xc2;" horiz-adv-x="1390" d="M31 0l608 1454h117l608 -1454h-154l-188 455h-653l-187 -455h-151zM399 567h590l-291 719zM444 1704l201 174h103l202 -174l-80 -43l-174 129l-174 -129z" />
<glyph unicode="&#xc3;" horiz-adv-x="1390" d="M31 0l608 1454h117l608 -1454h-154l-188 455h-653l-187 -455h-151zM373 1673q0 16 8 43t26.5 62.5t58.5 60.5t93 25q48 0 92.5 -21.5t86 -43t83.5 -21.5q30 0 53 10t34.5 23t18.5 28.5t9 24.5t2 14h86q0 -11 -4.5 -30t-18.5 -47.5t-35 -52.5t-58.5 -41t-84.5 -17 q-52 0 -99.5 20.5t-87.5 41t-75 20.5q-31 0 -53.5 -13.5t-32 -33t-13 -32.5t-3.5 -20h-86zM399 567h590l-291 719z" />
<glyph unicode="&#xc4;" horiz-adv-x="1390" d="M31 0l608 1454h117l608 -1454h-154l-188 455h-653l-187 -455h-151zM399 567h590l-291 719zM485 1679v193h119v-193h-119zM791 1679v193h118v-193h-118z" />
<glyph unicode="&#xc5;" horiz-adv-x="1390" d="M31 0l608 1454h117l608 -1454h-154l-188 455h-653l-187 -455h-151zM399 567h590l-291 719zM545 1745q0 60 42 96.5t109 36.5t109.5 -37t42.5 -96q0 -61 -42.5 -98t-109.5 -37t-109 37t-42 98zM614 1745q0 -34 23.5 -57t58.5 -23q33 0 58.5 23t25.5 57q0 35 -24 56.5 t-60 21.5q-35 0 -58.5 -21.5t-23.5 -56.5z" />
<glyph unicode="&#xc6;" horiz-adv-x="2029" d="M-2 0l936 1454h985v-127h-807v-522h696v-127h-696v-551h825v-127h-964v455h-531l-288 -455h-156zM508 582h455v700z" />
<glyph unicode="&#xc7;" horiz-adv-x="1413" d="M92 737q0 133 47 261t132.5 232t219 168t291.5 64q188 0 327.5 -86t209.5 -231l-115 -70q-33 70 -83 121.5t-108 80.5t-117.5 42.5t-121.5 13.5q-126 0 -230 -53t-170 -139.5t-102 -193t-36 -218.5q0 -119 42 -231t113.5 -196t173.5 -134.5t215 -50.5q86 0 169 27.5 t159.5 90t120.5 152.5l119 -61q-42 -98 -129 -173.5t-191 -115.5t-213 -47l-57 -94q30 12 78 12q72 0 113.5 -32.5t41.5 -92.5q0 -69 -54 -106t-155 -37t-202 38l34 64q76 -37 181 -37q116 0 116 72q0 73 -102 73q-82 0 -164 -28l90 168q-138 7 -259.5 74.5t-204.5 172 t-131 235.5t-48 265z" />
<glyph unicode="&#xc8;" horiz-adv-x="1255" d="M184 0v1454h959v-127h-817v-524h712v-121h-712v-555h835v-127h-977zM502 1878h145l123 -190l-90 -35z" />
<glyph unicode="&#xc9;" horiz-adv-x="1255" d="M184 0v1454h959v-127h-817v-524h712v-121h-712v-555h835v-127h-977zM612 1688l121 190h148l-176 -225z" />
<glyph unicode="&#xca;" horiz-adv-x="1255" d="M184 0v1454h959v-127h-817v-524h712v-121h-712v-555h835v-127h-977zM438 1704l201 174h102l203 -174l-80 -43l-174 129l-174 -129z" />
<glyph unicode="&#xcb;" horiz-adv-x="1255" d="M184 0v1454h959v-127h-817v-524h712v-121h-712v-555h835v-127h-977zM479 1679v193h119v-193h-119zM784 1679v193h119v-193h-119z" />
<glyph unicode="&#xcc;" horiz-adv-x="509" d="M63 1878h146l123 -190l-90 -35zM184 0v1452h142v-1452h-142z" />
<glyph unicode="&#xcd;" horiz-adv-x="509" d="M176 1688l121 190h147l-176 -225zM184 0v1452h142v-1452h-142z" />
<glyph unicode="&#xce;" horiz-adv-x="509" d="M2 1704l201 174h102l203 -174l-80 -43l-174 129l-174 -129zM184 0v1452h142v-1452h-142z" />
<glyph unicode="&#xcf;" horiz-adv-x="509" d="M43 1679v193h119v-193h-119zM184 0v1452h142v-1452h-142zM348 1679v193h119v-193h-119z" />
<glyph unicode="&#xd0;" horiz-adv-x="1480" d="M70 676v110h125v668h491q136 0 250.5 -37t196 -103t138 -157t84 -199t27.5 -229q0 -331 -189 -530t-507 -199h-491v676h-125zM336 127h350q133 0 239 46t174 127t104 190.5t36 238.5q0 267 -146.5 432.5t-406.5 165.5h-350v-541h350v-110h-350v-549z" />
<glyph unicode="&#xd1;" horiz-adv-x="1583" d="M184 0v1454h111l962 -1210v1208h142v-1452h-123l-950 1188v-1188h-142zM473 1673q0 16 8 43t26.5 62.5t58.5 60.5t93 25q48 0 92.5 -21.5t86.5 -43t84 -21.5q30 0 52.5 10t34 23t19 28.5t9 24.5t1.5 14h86q0 -15 -8.5 -41.5t-28.5 -61.5t-62.5 -60t-100.5 -25 q-52 0 -99.5 20.5t-87.5 41t-75 20.5q-31 0 -53.5 -13.5t-32 -32.5t-13.5 -32.5t-4 -20.5h-86z" />
<glyph unicode="&#xd2;" d="M92 727q0 144 53 278.5t142.5 235.5t218 162t270.5 61q118 0 226 -41.5t189.5 -113.5t142 -166t91.5 -201.5t31 -216.5q0 -144 -52.5 -278t-142 -235t-217.5 -161.5t-270 -60.5q-148 0 -277.5 63t-217 166t-137.5 235.5t-50 272.5zM236 727q0 -158 67 -296.5t192 -225 t279 -86.5q120 0 223 53t171 139t106.5 194.5t38.5 221.5q0 158 -68 296t-193 224t-278 86q-120 0 -223 -52.5t-170.5 -138t-106 -194t-38.5 -221.5zM586 1878h145l123 -190l-90 -35z" />
<glyph unicode="&#xd3;" d="M92 727q0 144 53 278.5t142.5 235.5t218 162t270.5 61q118 0 226 -41.5t189.5 -113.5t142 -166t91.5 -201.5t31 -216.5q0 -144 -52.5 -278t-142 -235t-217.5 -161.5t-270 -60.5q-148 0 -277.5 63t-217 166t-137.5 235.5t-50 272.5zM236 727q0 -158 67 -296.5t192 -225 t279 -86.5q120 0 223 53t171 139t106.5 194.5t38.5 221.5q0 158 -68 296t-193 224t-278 86q-120 0 -223 -52.5t-170.5 -138t-106 -194t-38.5 -221.5zM696 1688l121 190h148l-177 -225z" />
<glyph unicode="&#xd4;" d="M92 727q0 144 53 278.5t142.5 235.5t218 162t270.5 61q118 0 226 -41.5t189.5 -113.5t142 -166t91.5 -201.5t31 -216.5q0 -144 -52.5 -278t-142 -235t-217.5 -161.5t-270 -60.5q-148 0 -277.5 63t-217 166t-137.5 235.5t-50 272.5zM236 727q0 -158 67 -296.5t192 -225 t279 -86.5q120 0 223 53t171 139t106.5 194.5t38.5 221.5q0 158 -68 296t-193 224t-278 86q-120 0 -223 -52.5t-170.5 -138t-106 -194t-38.5 -221.5zM524 1704l201 174h102l203 -174l-80 -43l-174 129l-174 -129z" />
<glyph unicode="&#xd5;" d="M92 727q0 144 53 278.5t142.5 235.5t218 162t270.5 61q118 0 226 -41.5t189.5 -113.5t142 -166t91.5 -201.5t31 -216.5q0 -144 -52.5 -278t-142 -235t-217.5 -161.5t-270 -60.5q-148 0 -277.5 63t-217 166t-137.5 235.5t-50 272.5zM236 727q0 -158 67 -296.5t192 -225 t279 -86.5q120 0 223 53t171 139t106.5 194.5t38.5 221.5q0 158 -68 296t-193 224t-278 86q-120 0 -223 -52.5t-170.5 -138t-106 -194t-38.5 -221.5zM453 1673q0 16 8 43t26.5 62.5t58.5 60.5t93 25q48 0 92.5 -21.5t86 -43t83.5 -21.5q30 0 53 10t34.5 23t18.5 28.5t9 24.5 t2 14h86q0 -11 -4.5 -30t-18.5 -47.5t-35 -52.5t-58.5 -41t-84.5 -17q-52 0 -99.5 20.5t-87.5 41t-75 20.5q-31 0 -53.5 -13.5t-32 -33t-13 -32.5t-3.5 -20h-86z" />
<glyph unicode="&#xd6;" d="M92 727q0 144 53 278.5t142.5 235.5t218 162t270.5 61q118 0 226 -41.5t189.5 -113.5t142 -166t91.5 -201.5t31 -216.5q0 -144 -52.5 -278t-142 -235t-217.5 -161.5t-270 -60.5q-148 0 -277.5 63t-217 166t-137.5 235.5t-50 272.5zM236 727q0 -158 67 -296.5t192 -225 t279 -86.5q120 0 223 53t171 139t106.5 194.5t38.5 221.5q0 158 -68 296t-193 224t-278 86q-120 0 -223 -52.5t-170.5 -138t-106 -194t-38.5 -221.5zM563 1679v193h119v-193h-119zM868 1679v193h119v-193h-119z" />
<glyph unicode="&#xd7;" horiz-adv-x="946" d="M135 311l248 246l-246 248l90 88l246 -246l246 248l88 -90l-246 -248l250 -248l-90 -88l-248 248l-250 -248z" />
<glyph unicode="&#xd8;" d="M92 727q0 144 53 278.5t142.5 235.5t218 162t270.5 61q183 0 340 -100l62 90h159l-116 -174q110 -107 172.5 -254t62.5 -301q0 -144 -52.5 -278t-142 -235t-217.5 -161.5t-270 -60.5q-190 0 -346 100l-59 -90h-158l115 172q-110 106 -172 252t-62 303zM236 727 q0 -125 43 -240t122 -202l641 966q-125 82 -268 82q-120 0 -223 -52.5t-170.5 -138t-106 -194t-38.5 -221.5zM502 201q125 -82 272 -82q120 0 223 53t171 139t106.5 194.5t38.5 221.5q0 123 -44.5 237.5t-123.5 200.5z" />
<glyph unicode="&#xd9;" horiz-adv-x="1546" d="M162 721v733h141v-733q0 -96 14 -180t48 -163t86 -135.5t134 -90t187 -33.5q107 0 190.5 34.5t135.5 91.5t85.5 136.5t46.5 162.5t13 177v733h143v-733q0 -121 -20.5 -226.5t-67 -199.5t-116 -160.5t-174 -105.5t-234.5 -39q-135 0 -241 41t-174.5 109t-114 163.5 t-64 198.5t-18.5 219zM584 1878h145l123 -190l-90 -35z" />
<glyph unicode="&#xda;" horiz-adv-x="1546" d="M162 721v733h141v-733q0 -96 14 -180t48 -163t86 -135.5t134 -90t187 -33.5q107 0 190.5 34.5t135.5 91.5t85.5 136.5t46.5 162.5t13 177v733h143v-733q0 -121 -20.5 -226.5t-67 -199.5t-116 -160.5t-174 -105.5t-234.5 -39q-135 0 -241 41t-174.5 109t-114 163.5 t-64 198.5t-18.5 219zM694 1688l121 190h148l-177 -225z" />
<glyph unicode="&#xdb;" horiz-adv-x="1546" d="M162 721v733h141v-733q0 -96 14 -180t48 -163t86 -135.5t134 -90t187 -33.5q107 0 190.5 34.5t135.5 91.5t85.5 136.5t46.5 162.5t13 177v733h143v-733q0 -121 -20.5 -226.5t-67 -199.5t-116 -160.5t-174 -105.5t-234.5 -39q-135 0 -241 41t-174.5 109t-114 163.5 t-64 198.5t-18.5 219zM522 1704l201 174h102l203 -174l-80 -43l-174 129l-174 -129z" />
<glyph unicode="&#xdc;" horiz-adv-x="1546" d="M162 721v733h141v-733q0 -96 14 -180t48 -163t86 -135.5t134 -90t187 -33.5q107 0 190.5 34.5t135.5 91.5t85.5 136.5t46.5 162.5t13 177v733h143v-733q0 -121 -20.5 -226.5t-67 -199.5t-116 -160.5t-174 -105.5t-234.5 -39q-135 0 -241 41t-174.5 109t-114 163.5 t-64 198.5t-18.5 219zM563 1679v193h119v-193h-119zM868 1679v193h119v-193h-119z" />
<glyph unicode="&#xdd;" horiz-adv-x="1298" d="M16 1454h156l477 -782l479 782h156l-565 -913v-541h-141v545zM569 1688l121 190h148l-176 -225z" />
<glyph unicode="&#xde;" horiz-adv-x="1241" d="M184 0v1454h142v-289h422q121 0 221.5 -67t155.5 -171.5t55 -217.5q0 -120 -52 -224.5t-149.5 -170.5t-218.5 -66h-434v-248h-142zM326 377h430q124 0 202 99t78 233q0 133 -87 231t-208 98h-415v-661z" />
<glyph unicode="&#xdf;" horiz-adv-x="1128" d="M150 0v1055q0 181 115 294t294 113q164 0 273.5 -92t109.5 -235q0 -108 -63.5 -198t-153.5 -112q150 -32 236 -141t86 -260q0 -203 -152 -315.5t-412 -120.5v129q197 3 308.5 82t111.5 233q0 144 -94.5 233t-247.5 89h-37v127h35q109 0 179.5 65.5t70.5 167.5 q0 105 -73 165t-181 60q-130 0 -201 -86t-71 -219v-1034h-133z" />
<glyph unicode="&#xe0;" horiz-adv-x="1122" d="M66 305q0 148 124.5 238t325.5 90q175 0 313 -55v96q0 141 -81 224t-218 83q-163 0 -344 -127l-49 92q207 139 408 139q195 0 309.5 -113t114.5 -310v-482q0 -57 49 -57v-123q-46 -4 -55 -4q-44 0 -77 25.5t-36 72.5l-4 84q-68 -92 -182 -145t-232 -53q-161 0 -263.5 95 t-102.5 230zM201 317q0 -93 70 -162t196 -69q94 0 185 41t143 109q34 47 34 79v174q-147 56 -292 56q-151 0 -243.5 -61.5t-92.5 -166.5zM348 1495h146l122 -190l-90 -35z" />
<glyph unicode="&#xe1;" horiz-adv-x="1122" d="M66 305q0 148 124.5 238t325.5 90q175 0 313 -55v96q0 141 -81 224t-218 83q-163 0 -344 -127l-49 92q207 139 408 139q195 0 309.5 -113t114.5 -310v-482q0 -57 49 -57v-123q-46 -4 -55 -4q-44 0 -77 25.5t-36 72.5l-4 84q-68 -92 -182 -145t-232 -53q-161 0 -263.5 95 t-102.5 230zM201 317q0 -93 70 -162t196 -69q94 0 185 41t143 109q34 47 34 79v174q-147 56 -292 56q-151 0 -243.5 -61.5t-92.5 -166.5zM459 1305l121 190h147l-176 -225z" />
<glyph unicode="&#xe2;" horiz-adv-x="1122" d="M66 305q0 148 124.5 238t325.5 90q175 0 313 -55v96q0 141 -81 224t-218 83q-163 0 -344 -127l-49 92q207 139 408 139q195 0 309.5 -113t114.5 -310v-482q0 -57 49 -57v-123q-46 -4 -55 -4q-44 0 -77 25.5t-36 72.5l-4 84q-68 -92 -182 -145t-232 -53q-161 0 -263.5 95 t-102.5 230zM201 317q0 -93 70 -162t196 -69q94 0 185 41t143 109q34 47 34 79v174q-147 56 -292 56q-151 0 -243.5 -61.5t-92.5 -166.5zM287 1321l200 174h103l203 -174l-80 -43l-174 129l-174 -129z" />
<glyph unicode="&#xe3;" horiz-adv-x="1122" d="M66 305q0 148 124.5 238t325.5 90q175 0 313 -55v96q0 141 -81 224t-218 83q-163 0 -344 -127l-49 92q207 139 408 139q195 0 309.5 -113t114.5 -310v-482q0 -57 49 -57v-123q-46 -4 -55 -4q-44 0 -77 25.5t-36 72.5l-4 84q-68 -92 -182 -145t-232 -53q-161 0 -263.5 95 t-102.5 230zM201 317q0 -93 70 -162t196 -69q94 0 185 41t143 109q34 47 34 79v174q-147 56 -292 56q-151 0 -243.5 -61.5t-92.5 -166.5zM215 1290q0 16 8 43t26.5 62.5t58.5 60.5t93 25q48 0 92.5 -21.5t86.5 -43t84 -21.5q30 0 52.5 10t34 23t19 28.5t9 24.5t1.5 14h86 q0 -15 -8.5 -41.5t-28.5 -61.5t-62.5 -60t-100.5 -25q-52 0 -99.5 20.5t-88 41t-75.5 20.5q-31 0 -53.5 -13.5t-32 -33t-13 -32.5t-3.5 -20h-86z" />
<glyph unicode="&#xe4;" horiz-adv-x="1122" d="M66 305q0 148 124.5 238t325.5 90q175 0 313 -55v96q0 141 -81 224t-218 83q-163 0 -344 -127l-49 92q207 139 408 139q195 0 309.5 -113t114.5 -310v-482q0 -57 49 -57v-123q-46 -4 -55 -4q-44 0 -77 25.5t-36 72.5l-4 84q-68 -92 -182 -145t-232 -53q-161 0 -263.5 95 t-102.5 230zM201 317q0 -93 70 -162t196 -69q94 0 185 41t143 109q34 47 34 79v174q-147 56 -292 56q-151 0 -243.5 -61.5t-92.5 -166.5zM326 1296v193h118v-193h-118zM631 1296v193h119v-193h-119z" />
<glyph unicode="&#xe5;" horiz-adv-x="1122" d="M66 305q0 148 124.5 238t325.5 90q175 0 313 -55v96q0 141 -81 224t-218 83q-163 0 -344 -127l-49 92q207 139 408 139q195 0 309.5 -113t114.5 -310v-482q0 -57 49 -57v-123q-46 -4 -55 -4q-44 0 -77 25.5t-36 72.5l-4 84q-68 -92 -182 -145t-232 -53q-161 0 -263.5 95 t-102.5 230zM201 317q0 -93 70 -162t196 -69q94 0 185 41t143 109q34 47 34 79v174q-147 56 -292 56q-151 0 -243.5 -61.5t-92.5 -166.5zM385 1362q0 59 42.5 96t109.5 37t109 -36.5t42 -96.5q0 -61 -42 -98t-109 -37t-109.5 37t-42.5 98zM455 1362q0 -34 23.5 -57t58.5 -23 q33 0 58.5 23t25.5 57q0 35 -24 56.5t-60 21.5q-35 0 -58.5 -21.5t-23.5 -56.5z" />
<glyph unicode="&#xe6;" horiz-adv-x="1908" d="M70 311q0 141 124 231.5t320 90.5q143 0 274 -41q7 90 35 156q-19 109 -96.5 171t-198.5 62q-156 0 -340 -127l-49 92q207 139 402 139q131 0 225.5 -55.5t142.5 -157.5q70 98 176 155.5t232 57.5q152 0 274.5 -75t189.5 -201t68 -277q0 -41 -2 -49h-927 q13 -171 130.5 -284t278.5 -113q106 0 199 54t129 139l121 -33q-50 -118 -175.5 -192t-279.5 -74q-137 0 -252 63.5t-186 171.5q-44 -79 -124.5 -134t-166 -78t-172.5 -23q-149 0 -250.5 95.5t-101.5 235.5zM201 322q0 -99 74 -167.5t180 -68.5q108 0 200 41t140 109 q33 33 36 71q-39 77 -43 197q-121 41 -256 41q-148 0 -239.5 -61.5t-91.5 -161.5zM920 578h796q-12 175 -125 287t-276 112t-274.5 -113t-120.5 -286z" />
<glyph unicode="&#xe7;" horiz-adv-x="1130" d="M82 537q0 151 67 276t190 198.5t277 73.5q149 0 263 -68t172 -186l-136 -43q-44 82 -125 128.5t-178 46.5q-164 0 -275.5 -122t-111.5 -304q0 -181 114.5 -308t274.5 -127q101 0 194 54.5t118 128.5l135 -41q-41 -109 -153 -181t-253 -81l-53 -86q30 12 78 12 q72 0 114 -32.5t42 -92.5q0 -69 -54 -106t-155 -37q-102 0 -203 38l35 64q76 -37 180 -37q117 0 117 72q0 73 -103 73q-82 0 -164 -28l86 160q-213 15 -353 175.5t-140 379.5z" />
<glyph unicode="&#xe8;" horiz-adv-x="1202" d="M80 537q0 148 68.5 273.5t191.5 200t274 74.5t273 -75.5t188.5 -200t67.5 -270.5q0 -40 -4 -56h-912q12 -171 125.5 -284t268.5 -113q107 0 199 53.5t128 139.5l121 -33q-50 -118 -175 -192t-278 -74q-152 0 -275.5 76t-192 203t-68.5 278zM223 590h787 q-13 169 -125.5 278t-270.5 109t-269.5 -109.5t-121.5 -277.5zM418 1495h145l123 -190l-90 -35z" />
<glyph unicode="&#xe9;" horiz-adv-x="1202" d="M80 537q0 148 68.5 273.5t191.5 200t274 74.5t273 -75.5t188.5 -200t67.5 -270.5q0 -40 -4 -56h-912q12 -171 125.5 -284t268.5 -113q107 0 199 53.5t128 139.5l121 -33q-50 -118 -175 -192t-278 -74q-152 0 -275.5 76t-192 203t-68.5 278zM223 590h787 q-13 169 -125.5 278t-270.5 109t-269.5 -109.5t-121.5 -277.5zM528 1305l121 190h148l-176 -225z" />
<glyph unicode="&#xea;" horiz-adv-x="1202" d="M80 537q0 148 68.5 273.5t191.5 200t274 74.5t273 -75.5t188.5 -200t67.5 -270.5q0 -40 -4 -56h-912q12 -171 125.5 -284t268.5 -113q107 0 199 53.5t128 139.5l121 -33q-50 -118 -175 -192t-278 -74q-152 0 -275.5 76t-192 203t-68.5 278zM223 590h787 q-13 169 -125.5 278t-270.5 109t-269.5 -109.5t-121.5 -277.5zM356 1321l201 174h102l203 -174l-80 -43l-174 129l-174 -129z" />
<glyph unicode="&#xeb;" horiz-adv-x="1202" d="M80 537q0 148 68.5 273.5t191.5 200t274 74.5t273 -75.5t188.5 -200t67.5 -270.5q0 -40 -4 -56h-912q12 -171 125.5 -284t268.5 -113q107 0 199 53.5t128 139.5l121 -33q-50 -118 -175 -192t-278 -74q-152 0 -275.5 76t-192 203t-68.5 278zM223 590h787 q-13 169 -125.5 278t-270.5 109t-269.5 -109.5t-121.5 -277.5zM397 1296v193h119v-193h-119zM702 1296v193h119v-193h-119z" />
<glyph unicode="&#xec;" horiz-adv-x="438" d="M29 1495h145l123 -190l-90 -35zM150 0v1067h139v-1067h-139z" />
<glyph unicode="&#xed;" horiz-adv-x="438" d="M139 1305l121 190h148l-177 -225zM150 0v1067h139v-1067h-139z" />
<glyph unicode="&#xee;" horiz-adv-x="438" d="M-33 1321l201 174h102l203 -174l-80 -43l-174 129l-174 -129zM150 0v1067h139v-1067h-139z" />
<glyph unicode="&#xef;" horiz-adv-x="438" d="M8 1296v193h119v-193h-119zM150 0v1067h139v-1067h-139zM313 1296v193h119v-193h-119z" />
<glyph unicode="&#xf0;" horiz-adv-x="1234" d="M84 477q0 132 67.5 246t183.5 181t251 67q134 0 246.5 -66t168.5 -174q-22 142 -82.5 267t-181.5 243l-227 -143l-45 63l215 133q-112 97 -293 201h197q112 -68 204 -147l181 112l45 -61l-170 -105q301 -298 301 -727q0 -129 -43.5 -240t-117 -186t-171.5 -118t-207 -43 q-106 0 -202.5 39t-166.5 105.5t-111.5 158.5t-41.5 194zM227 475q0 -155 111.5 -264t271.5 -109q162 0 276.5 116.5t114.5 275.5q0 151 -113 255.5t-272 104.5q-161 0 -275 -111t-114 -268z" />
<glyph unicode="&#xf1;" horiz-adv-x="1185" d="M150 0v1067h126v-242q65 117 188.5 188.5t264.5 71.5q88 0 150.5 -31.5t99 -93.5t52.5 -144t16 -191v-625h-140v596q0 188 -55 275t-172 87q-126 0 -239 -87t-152 -218v-653h-139zM279 1290q0 16 8 43t26.5 62.5t58.5 60.5t93 25q48 0 92.5 -21.5t86 -43t83.5 -21.5 q30 0 53 10t34.5 23t18.5 28.5t9 24.5t2 14h86q0 -11 -4.5 -30t-18.5 -47.5t-35 -52.5t-58.5 -41t-84.5 -17q-52 0 -99.5 20.5t-87.5 41t-75 20.5q-31 0 -53.5 -13.5t-32 -33t-13 -32.5t-3.5 -20h-86z" />
<glyph unicode="&#xf2;" horiz-adv-x="1218" d="M80 530q0 148 68 275.5t190.5 203.5t271.5 76t271.5 -76t191 -203.5t68.5 -275.5t-68 -273.5t-190.5 -201t-272.5 -75.5q-114 0 -213.5 44.5t-168.5 119t-108.5 175.5t-39.5 211zM223 528q0 -178 112.5 -302t272.5 -124t274.5 126t114.5 304t-114 304.5t-273 126.5 q-160 0 -273.5 -127.5t-113.5 -307.5zM420 1495h145l123 -190l-90 -35z" />
<glyph unicode="&#xf3;" horiz-adv-x="1218" d="M80 530q0 148 68 275.5t190.5 203.5t271.5 76t271.5 -76t191 -203.5t68.5 -275.5t-68 -273.5t-190.5 -201t-272.5 -75.5q-114 0 -213.5 44.5t-168.5 119t-108.5 175.5t-39.5 211zM223 528q0 -178 112.5 -302t272.5 -124t274.5 126t114.5 304t-114 304.5t-273 126.5 q-160 0 -273.5 -127.5t-113.5 -307.5zM530 1305l121 190h148l-176 -225z" />
<glyph unicode="&#xf4;" horiz-adv-x="1218" d="M80 530q0 148 68 275.5t190.5 203.5t271.5 76t271.5 -76t191 -203.5t68.5 -275.5t-68 -273.5t-190.5 -201t-272.5 -75.5q-114 0 -213.5 44.5t-168.5 119t-108.5 175.5t-39.5 211zM223 528q0 -178 112.5 -302t272.5 -124t274.5 126t114.5 304t-114 304.5t-273 126.5 q-160 0 -273.5 -127.5t-113.5 -307.5zM356 1321l201 174h102l203 -174l-80 -43l-174 129l-174 -129z" />
<glyph unicode="&#xf5;" horiz-adv-x="1218" d="M80 530q0 148 68 275.5t190.5 203.5t271.5 76t271.5 -76t191 -203.5t68.5 -275.5t-68 -273.5t-190.5 -201t-272.5 -75.5q-114 0 -213.5 44.5t-168.5 119t-108.5 175.5t-39.5 211zM223 528q0 -178 112.5 -302t272.5 -124t274.5 126t114.5 304t-114 304.5t-273 126.5 q-160 0 -273.5 -127.5t-113.5 -307.5zM287 1290q0 16 8 43t26.5 62.5t58.5 60.5t93 25q48 0 92.5 -21.5t86 -43t83.5 -21.5q30 0 53 10t34.5 23t18.5 28.5t9 24.5t2 14h86q0 -11 -4.5 -30t-18.5 -47.5t-35 -52.5t-58.5 -41t-84.5 -17q-52 0 -99.5 20.5t-87.5 41t-75 20.5 q-31 0 -53.5 -13.5t-32 -33t-13 -32.5t-3.5 -20h-86z" />
<glyph unicode="&#xf6;" horiz-adv-x="1218" d="M80 530q0 148 68 275.5t190.5 203.5t271.5 76t271.5 -76t191 -203.5t68.5 -275.5t-68 -273.5t-190.5 -201t-272.5 -75.5q-114 0 -213.5 44.5t-168.5 119t-108.5 175.5t-39.5 211zM223 528q0 -178 112.5 -302t272.5 -124t274.5 126t114.5 304t-114 304.5t-273 126.5 q-160 0 -273.5 -127.5t-113.5 -307.5zM397 1296v193h119v-193h-119zM702 1296v193h119v-193h-119z" />
<glyph unicode="&#xf7;" horiz-adv-x="1095" d="M135 520v117h826v-117h-826zM487 152v184h121v-184h-121zM487 817v187h121v-187h-121z" />
<glyph unicode="&#xf8;" horiz-adv-x="1218" d="M80 530q0 148 68 275.5t190.5 203.5t271.5 76t275 -77l47 63h96l-82 -110q91 -77 143 -190.5t52 -240.5q0 -148 -68 -273.5t-190.5 -201t-272.5 -75.5q-154 0 -280 77l-45 -59h-95l80 104q-90 77 -140 189t-50 239zM223 528q0 -195 129 -321l459 692q-97 64 -201 64 q-160 0 -273.5 -127.5t-113.5 -307.5zM408 164q91 -62 200 -62q160 0 274.5 126t114.5 304q0 93 -35 177t-96 145z" />
<glyph unicode="&#xf9;" horiz-adv-x="1216" d="M139 440v627h140v-602q0 -363 247 -363q125 0 231.5 80t153.5 213v672h140v-887q0 -57 51 -57v-123q-40 -6 -58 -6q-48 0 -81 29t-33 71v148q-70 -124 -190 -193t-261 -69q-167 0 -253.5 116.5t-86.5 343.5zM401 1495h146l123 -190l-90 -35z" />
<glyph unicode="&#xfa;" horiz-adv-x="1216" d="M139 440v627h140v-602q0 -363 247 -363q125 0 231.5 80t153.5 213v672h140v-887q0 -57 51 -57v-123q-40 -6 -58 -6q-48 0 -81 29t-33 71v148q-70 -124 -190 -193t-261 -69q-167 0 -253.5 116.5t-86.5 343.5zM512 1305l121 190h147l-176 -225z" />
<glyph unicode="&#xfb;" horiz-adv-x="1216" d="M139 440v627h140v-602q0 -363 247 -363q125 0 231.5 80t153.5 213v672h140v-887q0 -57 51 -57v-123q-40 -6 -58 -6q-48 0 -81 29t-33 71v148q-70 -124 -190 -193t-261 -69q-167 0 -253.5 116.5t-86.5 343.5zM340 1321l201 174h102l203 -174l-80 -43l-174 129l-174 -129z " />
<glyph unicode="&#xfc;" horiz-adv-x="1216" d="M139 440v627h140v-602q0 -363 247 -363q125 0 231.5 80t153.5 213v672h140v-887q0 -57 51 -57v-123q-40 -6 -58 -6q-48 0 -81 29t-33 71v148q-70 -124 -190 -193t-261 -69q-167 0 -253.5 116.5t-86.5 343.5zM379 1296v193h119v-193h-119zM684 1296v193h119v-193h-119z " />
<glyph unicode="&#xfd;" horiz-adv-x="1110" d="M27 1067h145l395 -938l365 938h133l-555 -1376q-32 -77 -85 -113.5t-144 -36.5q-40 0 -70 6v123q24 -4 41 -4q50 0 78 12q23 9 53 68t109 254zM487 1305l121 190h148l-176 -225z" />
<glyph unicode="&#xfe;" horiz-adv-x="1232" d="M150 -436v1890h143v-565q141 201 354 201q114 0 211.5 -50.5t160.5 -131.5t98.5 -180.5t35.5 -201.5q-3 -147 -72 -275t-189 -206t-263 -78q-105 0 -197 53.5t-139 131.5v-588h-143zM293 352q0 -63 54.5 -124t132 -96.5t147.5 -35.5q108 0 197.5 62t138.5 160.5t49 209.5 q0 113 -46 212t-132 161t-193 62q-115 0 -204 -70.5t-144 -179.5v-361z" />
<glyph unicode="&#xff;" horiz-adv-x="1110" d="M27 1067h145l395 -938l365 938h133l-555 -1376q-32 -77 -85 -113.5t-144 -36.5q-40 0 -70 6v123q24 -4 41 -4q50 0 78 12q23 9 53 68t109 254zM354 1296v193h119v-193h-119zM659 1296v193h119v-193h-119z" />
<glyph unicode="&#x152;" horiz-adv-x="2375" d="M92 727q0 144 53 278.5t142.5 235.5t218 162t270.5 61q183 0 326.5 -107t214.5 -272v369h948v-127h-805v-522h694v-127h-694v-551h824v-127h-967v369q-71 -167 -217 -273t-324 -106q-148 0 -277.5 63t-217.5 166t-138.5 235.5t-50.5 272.5zM236 727q0 -158 67 -296.5 t192 -225t279 -86.5q120 0 223 52.5t171 139t106.5 195.5t38.5 223q0 157 -68 295t-193 224.5t-278 86.5q-96 0 -182 -34t-150 -93.5t-111 -136.5t-71 -165.5t-24 -178.5z" />
<glyph unicode="&#x153;" horiz-adv-x="2121" d="M82 528q0 154 69.5 282t191 201.5t267.5 73.5q156 0 278.5 -90.5t178.5 -246.5q57 160 178 248.5t285 88.5q224 0 367.5 -151t160.5 -402q0 -41 -2 -49h-911q14 -168 131 -282.5t278 -114.5q111 0 203.5 53.5t126.5 139.5l117 -33q-52 -118 -178.5 -192t-274.5 -74 q-153 0 -282 90.5t-197 242.5q-68 -156 -189 -244.5t-272 -88.5q-223 0 -374.5 158.5t-151.5 389.5zM223 526q0 -180 112 -302t275 -122t275 124t112 304q0 181 -112 307t-273 126t-275 -128t-114 -309zM1143 578h780q-12 173 -125.5 286t-271.5 113q-157 0 -265.5 -113 t-117.5 -286z" />
<glyph unicode="&#x178;" horiz-adv-x="1298" d="M16 1454h156l477 -782l479 782h156l-565 -913v-541h-141v545zM436 1679v193h119v-193h-119zM741 1679v193h119v-193h-119z" />
<glyph unicode="&#x2c6;" horiz-adv-x="675" d="M86 1321l201 174h102l203 -174l-80 -43l-174 129l-174 -129z" />
<glyph unicode="&#x2dc;" horiz-adv-x="831" d="M90 1290q0 16 8 43t26.5 62.5t58.5 60.5t93 25q48 0 92.5 -21.5t86.5 -43t84 -21.5q30 0 52.5 10t34 23t19 28.5t9 24.5t1.5 14h86q0 -15 -8.5 -41.5t-28.5 -61.5t-62.5 -60t-100.5 -25q-52 0 -99.5 20.5t-87.5 41t-75 20.5q-31 0 -53.5 -13.5t-32 -32.5t-13.5 -32.5 t-4 -20.5h-86z" />
<glyph unicode="&#x2000;" horiz-adv-x="939" />
<glyph unicode="&#x2001;" horiz-adv-x="1878" />
<glyph unicode="&#x2002;" horiz-adv-x="939" />
<glyph unicode="&#x2003;" horiz-adv-x="1878" />
<glyph unicode="&#x2004;" horiz-adv-x="626" />
<glyph unicode="&#x2005;" horiz-adv-x="469" />
<glyph unicode="&#x2006;" horiz-adv-x="313" />
<glyph unicode="&#x2007;" horiz-adv-x="313" />
<glyph unicode="&#x2008;" horiz-adv-x="234" />
<glyph unicode="&#x2009;" horiz-adv-x="375" />
<glyph unicode="&#x200a;" horiz-adv-x="104" />
<glyph unicode="&#x2010;" horiz-adv-x="866" d="M135 494v129h596v-129h-596z" />
<glyph unicode="&#x2011;" horiz-adv-x="866" d="M135 494v129h596v-129h-596z" />
<glyph unicode="&#x2012;" horiz-adv-x="866" d="M135 494v129h596v-129h-596z" />
<glyph unicode="&#x2013;" horiz-adv-x="1167" d="M135 494v129h899v-129h-899z" />
<glyph unicode="&#x2014;" horiz-adv-x="1845" d="M135 494v129h1577v-129h-1577z" />
<glyph unicode="&#x2018;" horiz-adv-x="405" d="M119 1249v246h119v-227q0 -24 13 -33.5t30 -9.5v-107q-67 0 -114.5 32.5t-47.5 98.5z" />
<glyph unicode="&#x2019;" horiz-adv-x="405" d="M109 1389v106q67 0 114 -32.5t47 -98.5v-246h-118v228q0 24 -13 33.5t-30 9.5z" />
<glyph unicode="&#x201a;" horiz-adv-x="419" d="M113 -31q17 0 30 9.5t13 33.5v189h118v-209q0 -65 -47.5 -97t-113.5 -32v106z" />
<glyph unicode="&#x201c;" horiz-adv-x="667" d="M119 1249v246h119v-227q0 -24 13 -33.5t30 -9.5v-107q-67 0 -114.5 32.5t-47.5 98.5zM381 1249v246h119v-227q0 -24 13 -33.5t30 -9.5v-107q-67 0 -114.5 32.5t-47.5 98.5z" />
<glyph unicode="&#x201d;" horiz-adv-x="667" d="M109 1389v106q67 0 114 -32.5t47 -98.5v-246h-118v228q0 24 -13 33.5t-30 9.5zM371 1389v106q67 0 114 -32.5t47 -98.5v-246h-118v228q0 24 -13 33.5t-30 9.5z" />
<glyph unicode="&#x201e;" horiz-adv-x="659" d="M113 -31q17 0 30 9.5t13 33.5v189h118v-209q0 -65 -47.5 -97t-113.5 -32v106zM352 -31q17 0 30 9.5t13 33.5v189h119v-209q0 -65 -48 -97t-114 -32v106z" />
<glyph unicode="&#x2022;" horiz-adv-x="727" d="M180 709q0 74 55 128t130 54t128.5 -54t53.5 -128q0 -76 -53.5 -130.5t-128.5 -54.5t-130 54.5t-55 130.5z" />
<glyph unicode="&#x2026;" horiz-adv-x="937" d="M135 0v201h119v-201h-119zM410 0v201h118v-201h-118zM684 0v201h119v-201h-119z" />
<glyph unicode="&#x202f;" horiz-adv-x="375" />
<glyph unicode="&#x2039;" horiz-adv-x="731" d="M90 489v76l510 365v-121l-395 -279l395 -274v-121z" />
<glyph unicode="&#x203a;" horiz-adv-x="731" d="M131 135v121l395 274l-395 279v121l508 -365v-76z" />
<glyph unicode="&#x205f;" horiz-adv-x="469" />
<glyph unicode="&#x20ac;" horiz-adv-x="1644" d="M70 549l36 88h181q-6 50 -6 127h-152l37 88h123q18 119 72.5 227t139 194.5t206.5 137.5t264 51q188 0 327 -86t209 -231l-114 -70q-33 70 -83 121.5t-108 80.5t-117.5 42.5t-121.5 13.5q-109 0 -202.5 -39.5t-158.5 -107.5t-108 -153t-60 -181h692l-36 -88h-666 q0 -80 6 -127h623l-39 -88h-565q52 -188 194.5 -310t325.5 -122q86 0 168.5 27.5t159 90t120.5 152.5l119 -61q-45 -104 -140.5 -182.5t-208 -117t-226.5 -38.5q-121 0 -231.5 45.5t-194 123t-143.5 178.5t-89 214h-233z" />
<glyph unicode="&#x2122;" horiz-adv-x="1484" d="M121 1360v98h487v-98h-194v-492h-99v492h-194zM702 868v586h136l176 -383l174 383h137v-586h-98v445l-172 -359h-82l-172 359v-445h-99z" />
<glyph unicode="&#x25fc;" horiz-adv-x="1064" d="M0 0v1065h1065v-1065h-1065z" />
</font>
</defs>
</svg>
